Тв-шоу и развлектельные передачи (WEBRip)

Такое кино. Выпуск 303 [24/01/2020, ТВ-Шоу, WEBRip 720p]
Торрент трекер Riperam.org
Ссылка http://riperam.org/tvshou-i-razvlekat/
Ссылка на rrs ленту-источник riperam.org/feed.php?f=23&mode=torrents
ФильтрWEBRip
Сгенерированная rss лента http://rss-torrent.ru/upload/rss/463.xml
Добавил пользовательadmin
Закачивать в Тв-шоу и развлекательный передачи (new)
Последние файлы
НазваниеЗакачкаДата
Такое кино. Выпуск 303 [24/01/2020, ТВ-Шоу, WEBRip 720p]Скачать торрент 1 27.01.2020 08:14:12
Видели видео? Выпуск 84 [26/01/2020, Развлекательное Шоу, WEBRip]Скачать торрент 1 26.01.2020 22:13:32
Квартирный вопрос / 1-131 выпуски [2017-2020, ТВ-Шоу, WEBRip 1080p]Скачать торрент25.01.2020 18:34:57
Доктор Свет / 1 выпуск [2020, ТВ-Шоу, здоровье, медицина, WEBRip 1080p]Скачать торрент 1 25.01.2020 13:37:46
Доктор Свет / 1 выпуск [2020, ТВ-Шоу, здоровье, медицина, WEBRip]Скачать торрент 1 25.01.2020 13:33:33
Видели видео? Выпуск 83 [19/01/2020, Развлекательное Шоу, WEBRip 720p]Скачать торрент 1 20.01.2020 21:44:35
Казан & Мангал со Сталиком Ханкишиевым (1-383 выпуск) [2008 - 2020, Кулинарное шоу, видеоурок , WEBRip (1080p)]Скачать торрент20.01.2020 16:06:34
Наркоман Павлик / 7 сезон / Серия 1-7 из 10 [2019, Юмор, короткометражный WEBRip (1080р)]Скачать торрент 1 20.01.2020 04:59:17
Основано на реальных событиях - Кого покрывает Зеленский [19/01/2020, ТВ-шоу, WEBRip 720p]Скачать торрент 1 19.01.2020 19:23:42
Видели видео? Выпуск 83 [19/01/2020, Развлекательное Шоу, WEBRip]Скачать торрент 1 19.01.2020 19:13:32
Квартирный вопрос / 1-130 выпуски [2017-2020, ТВ-Шоу, WEBRip 1080p]Скачать торрент18.01.2020 17:40:19
Такое кино. Выпуск 302 [17/01/2020, ТВ-Шоу, WEBRip 720p]Скачать торрент 1 18.01.2020 08:57:08
Казан & Мангал со Сталиком Ханкишиевым (1-381 выпуск) [2008 - 2020, Кулинарное шоу, видеоурок , WEBRip (1080p)]Скачать торрент15.01.2020 09:39:25
Видели видео? Выпуск 82 [12/01/2020, Развлекательное Шоу, WEBRip 720p]Скачать торрент 1 14.01.2020 03:16:57
Заповедник. Зверские итоги недели 2019 (Выпуски 57-105) [2019, Юмор, сатира, WEBRip 720p]Скачать торрент 1 13.01.2020 16:42:44
Такое кино. Выпуск 301 [10/01/2020, ТВ-Шоу, WEBRip 720p]Скачать торрент 1 13.01.2020 08:46:22
Видели видео? Выпуск 82 [12/01/2020, Развлекательное Шоу, WEBRip]Скачать торрент 1 13.01.2020 00:16:31
Видели видео? Выпуск 81 [08/01/2020, Развлекательное Шоу, WEBRip 720p]Скачать торрент 1 10.01.2020 21:09:10
Видели видео? Выпуск 80 [07/01/2020, Развлекательное Шоу, WEBRip 720p]Скачать торрент09.01.2020 22:05:30
Видели видео? Выпуск 81 [08/01/2020, Развлекательное Шоу, WEBRip]Скачать торрент 1 08.01.2020 19:53:09
Видели видео? Выпуск 79 [06/01/2020, Развлекательное Шоу, WEBRip 720p]Скачать торрент 1 08.01.2020 13:50:34
Видели видео? Выпуск 80 [07/01/2020, Развлекательное Шоу, WEBRip]Скачать торрент 1 07.01.2020 21:15:43
Казан & Мангал со Сталиком Ханкишиевым (1-380 выпуск) [2008 - 2019, Кулинарное шоу, видеоурок , WEBRip (1080p)]Скачать торрент06.01.2020 23:13:24
Видели видео? Выпуск 79 [06/01/2020, Развлекательное Шоу, WEBRip]Скачать торрент 1 06.01.2020 22:26:43
Видели видео? Выпуск 78 [05/01/2020, Развлекательное Шоу, WEBRip 720p]Скачать торрент 1 06.01.2020 13:59:17
Видели видео? Выпуск 77 [04/01/2020, Развлекательное Шоу, WEBRip 720p]Скачать торрент 1 06.01.2020 00:56:36
Видели видео? Выпуск 78 [05/01/2020, Развлекательное Шоу, WEBRip]Скачать торрент 1 05.01.2020 20:35:07
Видели видео? Выпуск 77 [04/01/2020, Развлекательное Шоу, WEBRip]Скачать торрент 1 04.01.2020 17:07:37
Видели видео? Выпуск 76 [03/01/2020, Развлекательное Шоу, WEBRip 720p]Скачать торрент04.01.2020 14:18:51
Такое кино. Выпуск 300 [03/01/2020, ТВ-Шоу, WEBRip 720p]Скачать торрент 1 04.01.2020 12:28:40
Видели видео? Выпуск 76 [03/01/2020, Развлекательное Шоу, WEBRip]Скачать торрент 1 03.01.2020 21:13:02
100ЯНОВ (1-3 выпуск) [2019-2020, Юмор, WEBRip]Скачать торрент 1 03.01.2020 17:40:15
Название: Такое кино
Страна: Россия
Жанр: ТВ-Шоу
Продолжительность: 00:22:32
Выпуск: 303
Дата выхода: 24/01/2020
Ведущие: Андрей Родной и Полина Максимова

Описание: Программа о новинках и новостях из мира кинематографа

Качество: WEBRip 720p
Формат файла: MKV
Видео: MPEG4 Video (H264) 1280x720 25fps 2939kbps
Аудио: AAC 44100Hz stereo 128kbps



Code: Выделить всё
General
Unique ID                      : 193558195489217505241171004481166983061 (0x919DF3D4E7B59D3B91DC902F8AB93F95)
Complete name                  : C:\Users\Администратор\Downloads\Такое кино. Выпуск 303 (24.01.2020).mkv
Format                         : Matroska
Format version                 : Version 4 / Version 2
File size                      : 495 MiB
Duration                       : 22 min 32 s
Overall bit rate               : 3 071 kb/s
Movie name                     : Такое кино. Выпуск 303 (24.01.2020) WEBRip 720p
Encoded date                   : UTC 2020-01-27 02:28:07
Writing application            : mkvmerge v7.4.0 ('Circles') 32bit built on Dec 12 2014 12:10:09
Writing library                : libebml v1.3.0 + libmatroska v1.4.1
Cover                          : Yes
Attachments                    : cover.jpg

Video
ID                             : 1
Format                         : AVC
Format/Info                    : Advanced Video Codec
Format profile                 : [email protected]
Format settings, CABAC         : No
Format settings, RefFrames     : 3 frames
Format settings, GOP           : M=1, N=25
Codec ID                       : V_MPEG4/ISO/AVC
Duration                       : 22 min 32 s
Bit rate                       : 2 939 kb/s
Width                          : 1 280 pixels
Height                         : 720 pixels
Display aspect ratio           : 16:9
Frame rate mode                : Constant
Frame rate                     : 25.000 FPS
Color space                    : YUV
Chroma subsampling             : 4:2:0
Bit depth                      : 8 bits
Scan type                      : Progressive
Bits/(Pixel*Frame)             : 0.128
Stream size                    : 474 MiB (96%)
Title                          : Лютобор
Language                       : Russian
Default                        : Yes
Forced                         : No

Audio
ID                             : 2
Format                         : AAC
Format/Info                    : Advanced Audio Codec
Format profile                 : LC
Codec ID                       : A_AAC
Duration                       : 22 min 32 s
Bit rate                       : 128 kb/s
Channel(s)                     : 2 channels
Channel positions              : Front: L R
Sampling rate                  : 44.1 kHz
Frame rate                     : 43.066 FPS (1024 SPF)
Compression mode               : Lossy
Delay relative to video        : 154 ms
Stream size                    : 20.6 MiB (4%)
Default                        : Yes
Forced                         : No


Все раздачи ТАКОЕ КИНО

Статистика: Добавлено Лютобор - 2020-01-27 07:14:12+03:00 - Ответы 0 - Просмотры 2